<?xml version="1.0" standalone="no"?>
<!DOCTYPE svg PUBLIC "-//W3C//DTD SVG 1.1//EN" "http://www.w3.org/Graphics/SVG/1.1/DTD/svg11.dtd" >
<svg xmlns="http://www.w3.org/2000/svg">
<metadata>Generated by IcoMoon</metadata>
<defs>
<font id="icomoon" horiz-adv-x="1024">
<font-face units-per-em="1024" ascent="960" descent="-64" />
<missing-glyph horiz-adv-x="1024" />
<glyph unicode="&#x20;" d="" horiz-adv-x="512" />
<glyph unicode="&#xe019;" d="M704 298.667c-64-64-64-128-128-128s-128 64-192 128-128 128-128 192 64 64 128 128-128 256-192 256-192-192-192-192c0-128 131.5-387.5 256-512s384-256 512-256c0 0 192 128 192 192s-192 256-256 192z" />
<glyph unicode="&#xe01d;" d="M512 682.667v-320h256v64h-192v256zM576 874.667c-247.424 0-448-200.576-448-448h-128l160-192 160 192h-128c0 212.078 171.922 384 384 384s384-171.922 384-384c0-212.078-171.922-384-384-384-21.808 0-43.184 1.846-64 5.34v-64.77c20.906-2.99 42.268-4.57 64-4.57 247.424 0 448 200.576 448 448s-200.576 448-448 448z" />
<glyph unicode="&#xe039;" d="M928 682.667h-576c-52.8 0-96-43.2-96-96v-448c0-52.8 43.2-96 96-96h160l128-128 128 128h160c52.8 0 96 43.2 96 96v448c0 52.8-43.198 96-96 96zM768 842.667c0 52.8-43.2 96-96 96h-576c-52.8 0-96-43.2-96-96v-448c0-52.8 43.2-96 96-96h32v416c0 53.020 42.98 96 96 96h544v32z" />
<glyph unicode="&#xe03b;" d="M256 618.667c0-141.385 114.615-256 256-256s256 114.615 256 256c0 141.385-114.615 256-256 256s-256-114.615-256-256zM768 298.667h-512c-141.384 0-256-114.618-256-256v-64h1024v64c0 141.382-114.616 256-256 256z" />
<glyph unicode="&#xe03f;" d="M384 810.667c0-70.692 57.308-128 128-128s128 57.308 128 128c0 70.692-57.308 128-128 128s-128-57.308-128-128zM655.53 698.197c0-70.692 57.308-128 128-128s128 57.308 128 128c0 70.692-57.308 128-128 128s-128-57.308-128-128zM832 426.667c0-35.346 28.654-64 64-64s64 28.654 64 64c0 35.346-28.654 64-64 64s-64-28.654-64-64zM719.53 155.137c0-35.346 28.654-64 64-64s64 28.654 64 64c0 35.346-28.654 64-64 64s-64-28.654-64-64zM448.002 42.667c0 0 0 0 0 0 0-35.346 28.654-64 64-64s64 28.654 64 64c0 0 0 0 0 0s0 0 0 0c0 35.346-28.654 64-64 64s-64-28.654-64-64c0 0 0 0 0 0zM176.472 155.137c0 0 0 0 0 0 0-35.346 28.654-64 64-64s64 28.654 64 64c0 0 0 0 0 0s0 0 0 0c0 35.346-28.654 64-64 64s-64-28.654-64-64c0 0 0 0 0 0zM144.472 698.197c0 0 0 0 0 0 0-53.019 42.981-96 96-96s96 42.981 96 96c0 0 0 0 0 0s0 0 0 0c0 53.019-42.981 96-96 96s-96-42.981-96-96c0 0 0 0 0 0zM56 426.667c0-39.765 32.235-72 72-72s72 32.235 72 72c0 39.765-32.235 72-72 72s-72-32.235-72-72z" />
<glyph unicode="&#xe040;" d="M1024 426.667c-1.278 66.862-15.784 133.516-42.576 194.462-26.704 61-65.462 116.258-113.042 161.92-47.552 45.696-103.944 81.82-164.984 105.652-61.004 23.924-126.596 35.352-191.398 33.966-64.81-1.282-129.332-15.374-188.334-41.356-59.048-25.896-112.542-63.47-156.734-109.576-44.224-46.082-79.16-100.708-102.186-159.798-23.114-59.062-34.128-122.52-32.746-185.27 1.286-62.76 14.964-125.148 40.134-182.206 25.088-57.1 61.476-108.828 106.11-151.548 44.61-42.754 97.472-76.504 154.614-98.72 57.118-22.304 118.446-32.902 179.142-31.526 60.708 1.29 120.962 14.554 176.076 38.914 55.15 24.282 105.116 59.48 146.366 102.644 41.282 43.14 73.844 94.236 95.254 149.43 13.034 33.458 21.88 68.4 26.542 103.798 1.246-0.072 2.498-0.12 3.762-0.12 35.346 0 64 28.652 64 64 0 1.796-0.094 3.572-0.238 5.332h0.238zM922.306 256.719c-23.472-53.202-57.484-101.4-99.178-141.18-41.67-39.81-91-71.186-144.244-91.79-53.228-20.678-110.29-30.452-166.884-29.082-56.604 1.298-112.596 13.736-163.82 36.474-51.25 22.666-97.684 55.49-135.994 95.712-38.338 40.198-68.528 87.764-88.322 139.058-19.87 51.284-29.228 106.214-27.864 160.756 1.302 54.552 13.328 108.412 35.254 157.69 21.858 49.3 53.498 93.97 92.246 130.81 38.73 36.868 84.53 65.87 133.874 84.856 49.338 19.060 102.136 28.006 154.626 26.644 52.5-1.306 104.228-12.918 151.562-34.034 47.352-21.050 90.256-51.502 125.624-88.782 35.396-37.258 63.21-81.294 81.39-128.688 18.248-47.392 26.782-98.058 25.424-148.496h0.238c-0.144-1.76-0.238-3.536-0.238-5.332 0-33.012 24.992-60.174 57.086-63.624-6.224-34.822-16.53-68.818-30.78-100.992z" />
<glyph unicode="&#xe044;" d="M704 938.667c-176.73 0-320-143.268-320-320 0-20.026 1.858-39.616 5.376-58.624l-389.376-389.376v-192c0-35.346 28.654-64 64-64h64v64h128v128h128v128h128l83.042 83.042c34.010-12.316 70.696-19.042 108.958-19.042 176.73 0 320 143.268 320 320s-143.27 320-320 320zM799.874 618.541c-53.020 0-96 42.98-96 96s42.98 96 96 96 96-42.98 96-96-42.98-96-96-96z" />
<glyph unicode="&#xe04a;" d="M933.79 328.417c-53.726 93.054-21.416 212.304 72.152 266.488l-100.626 174.292c-28.75-16.854-62.176-26.518-97.846-26.518-107.536 0-194.708 87.746-194.708 195.99h-201.258c0.266-33.41-8.074-67.282-25.958-98.252-53.724-93.056-173.156-124.702-266.862-70.758l-100.624-174.292c28.97-16.472 54.050-40.588 71.886-71.478 53.638-92.908 21.512-211.92-71.708-266.224l100.626-174.292c28.65 16.696 61.916 26.254 97.4 26.254 107.196 0 194.144-87.192 194.7-194.958h201.254c-0.086 33.074 8.272 66.57 25.966 97.218 53.636 92.906 172.776 124.594 266.414 71.012l100.626 174.29c-28.78 16.466-53.692 40.498-71.434 71.228zM512 219.335c-114.508 0-207.336 92.824-207.336 207.334 0 114.508 92.826 207.334 207.336 207.334 114.508 0 207.332-92.826 207.332-207.334-0.002-114.51-92.824-207.334-207.332-207.334z" />
<glyph unicode="&#xe04c;" d="M0 106.667h1024v-128h-1024zM128 362.667h128v-192h-128zM320 618.667h128v-448h-128zM512 426.667h128v-256h-128zM704 810.667h128v-640h-128z" />
<glyph unicode="&#xe04d;" d="M64 234.667h128v-320h-128zM320 362.667h128v-448h-128zM576 426.667h128v-512h-128zM832 618.667h128v-704h-128zM768 938.667l64-64-256-256-128 128-384-384 64-64 320 320 128-128 320 320 64-64v192z" />
<glyph unicode="&#xe053;" d="M512 682.667c-282.77 0-512-229.228-512-512h64c0 116.418 51.806 220.726 133.622 291.148l216.846-271.054c-1.33-6.49-2.028-13.208-2.028-20.094 0-54.984 44.574-99.558 99.558-99.558 54.986 0 99.558 44.574 99.558 99.558s-44.572 99.562-99.558 99.562c-6.882 0-13.604-0.702-20.092-2.032l-267.948 214.364c63.056 45.376 140.426 72.108 224.042 72.108 212.076 0 384-171.92 384-383.998h192c0 282.768-229.23 511.996-512 511.996z" />
<glyph unicode="&#xe054;" d="M512 682.667c-282.77 0-512-229.228-512-512h64c0 212.078 171.922 384 384 384 14.334 0 28.482-0.792 42.41-2.32l-33.172-298.528c-26.988-17.808-44.798-48.398-44.798-83.152 0-54.984 44.576-99.558 99.56-99.558s99.56 44.574 99.56 99.558c0 34.754-17.808 65.344-44.796 83.152l-32.344 291.084c170.46-39.202 297.58-191.872 297.58-374.236h192c0 282.772-229.23 512-512 512z" />
<glyph unicode="&#xe055;" d="M832 170.667h192c0 282.772-229.23 512-512 512s-512-229.228-512-512h64c0 212.078 171.922 384 384 384 112.818 0 214.272-48.652 284.526-126.122l-200.434-160.348c-6.49 1.33-13.208 2.032-20.092 2.032-54.986 0-99.56-44.578-99.56-99.562s44.574-99.558 99.56-99.558c54.984 0 99.556 44.574 99.556 99.558 0 6.88-0.698 13.604-2.028 20.094l156.332 195.414c41.746-61.446 66.14-135.626 66.14-215.508z" />
<glyph unicode="&#xe056;" d="M512 938.667c-282.77 0-512-229.23-512-512s229.23-512 512-512 512 229.23 512 512-229.23 512-512 512zM512 42.667c-212.078 0-384 171.922-384 384s171.922 384 384 384c212.078 0 384-171.922 384-384s-171.922-384-384-384zM448 682.667c0-35.346 28.654-64 64-64s64 28.654 64 64c0 35.346-28.654 64-64 64s-64-28.654-64-64zM640 618.667c0-35.346 28.654-64 64-64s64 28.654 64 64c0 35.346-28.654 64-64 64s-64-28.654-64-64zM256 618.667c0-35.346 28.654-64 64-64s64 28.654 64 64c0 35.346-28.654 64-64 64s-64-28.654-64-64zM448 234.667v-64h128v64l-64 320z" />
<glyph unicode="&#xe06d;" d="M0 938.667h448v-448h-448zM576 938.667h448v-448h-448zM0 362.667h448v-448h-448zM576 362.667h448v-448h-448z" />
<glyph unicode="&#xe07f;" d="M944.332 795.001c-106.222 106.222-278.444 106.222-384.666 0-19.458-19.458-35.338-41.138-47.666-64.214-12.33 23.076-28.208 44.756-47.666 64.214-106.222 106.222-278.444 106.222-384.666 0s-106.222-278.444 0-384.666l432.332-431.668 432.332 431.666c106.222 106.222 106.222 278.444 0 384.668z" />
<glyph unicode="&#xe089;" d="M1014.662 116.007c-0.004 0.004-0.008 0.008-0.012 0.010l-310.644 310.65 310.644 310.65c0.004 0.004 0.008 0.006 0.012 0.010 3.344 3.346 5.762 7.254 7.312 11.416 4.246 11.376 1.824 24.682-7.324 33.83l-146.746 146.746c-9.148 9.146-22.45 11.566-33.828 7.32-4.16-1.55-8.070-3.968-11.418-7.31 0-0.004-0.004-0.006-0.008-0.010l-310.648-310.652-310.648 310.65c-0.004 0.004-0.006 0.006-0.010 0.010-3.346 3.342-7.254 5.76-11.414 7.31-11.38 4.248-24.682 1.826-33.83-7.32l-146.748-146.748c-9.148-9.148-11.568-22.452-7.322-33.828 1.552-4.16 3.97-8.072 7.312-11.416 0.004-0.002 0.006-0.006 0.010-0.010l310.65-310.648-310.65-310.652c-0.002-0.004-0.006-0.006-0.008-0.010-3.342-3.346-5.76-7.254-7.314-11.414-4.248-11.376-1.826-24.682 7.322-33.83l146.748-146.746c9.15-9.148 22.452-11.568 33.83-7.322 4.16 1.552 8.070 3.97 11.416 7.312 0.002 0.004 0.006 0.006 0.010 0.010l310.648 310.65 310.648-310.65c0.004-0.002 0.008-0.006 0.012-0.008 3.348-3.344 7.254-5.762 11.414-7.314 11.378-4.246 24.684-1.826 33.828 7.322l146.746 146.748c9.148 9.148 11.57 22.454 7.324 33.83-1.552 4.16-3.97 8.068-7.314 11.414z" />
<glyph unicode="&#xe08a;" d="M864 842.667l-480-480-224 224-160-160 384-384 640 640z" />
<glyph unicode="&#xe08b;" d="M0 522.667v-192c0-17.672 14.328-32 32-32h960c17.672 0 32 14.328 32 32v192c0 17.672-14.328 32-32 32h-960c-17.672 0-32-14.328-32-32z" />
<glyph unicode="&#xe08c;" d="M992 554.667h-352v352c0 17.672-14.328 32-32 32h-192c-17.672 0-32-14.328-32-32v-352h-352c-17.672 0-32-14.328-32-32v-192c0-17.672 14.328-32 32-32h352v-352c0-17.672 14.328-32 32-32h192c17.672 0 32 14.328 32 32v352h352c17.672 0 32 14.328 32 32v192c0 17.672-14.328 32-32 32z" />
<glyph unicode="&#xe09c;" d="M256 490.667v-127.998l192 191.998v-383.998l128-0.002 0.002 384 192-192v128l-256 256zM0 426.667c0-282.768 229.23-511.998 512-512 282.77 0 512 229.23 512 512 0.002 282.77-229.228 512-512 512s-512-229.23-512-512zM960.002 426.667c-0.002-247.424-200.578-448-448.002-448-247.424 0.002-448 200.578-448 448 0 247.424 200.576 448 448 448s448.002-200.576 448.002-448z" />
<glyph unicode="&#xe09e;" d="M768 362.667v128l-192-192v384h-128v-384l-192 192v-128l256-256zM1024 426.667c0 282.77-229.23 512-512 512s-512-229.23-512-512 229.23-512 512-512 512 229.23 512 512zM64 426.667c0 247.424 200.576 448 448 448s448-200.576 448-448-200.576-448-448-448-448 200.576-448 448z" />
<glyph unicode="&#xe0a0;" d="M768 490.667l-256 256-256-256zM256 298.667l256-256 256 256z" />
<glyph unicode="&#xe0a4;" d="M704 362.667l256 256-256 256v-192h-704v-128h704zM320 298.667v192l-256-256 256-256v192h704v128z" />
<glyph unicode="&#xe0a5;" d="M704 746.667h-704v-128h704v-192l256 256-256 256zM960 938.667v-512h64v512zM320 426.667l-256-256 256-256v192h704v128h-704zM0 426.667v-512h64v512z" />
<glyph unicode="&#xe0b6;" d="M128 426.667l256 256h-128l-256-256 256-256h128zM768 682.667h-128l256-256-256-256h128l256 256zM544 810.667l-160-768h96l160 768z" />
<glyph unicode="&#xe13b;" d="M960 426.667c0-247.424-200.576-448-448-448s-448 200.576-448 448c0 109.056 39.232 208.736 104 286.4 4.928 9.088 11.776 16.992 20.32 22.72 1.44 1.504 2.72 3.2 4.192 4.672 0.032-0.736 0.352-1.44 0.416-2.176 9.248 5.184 19.744 8.384 31.072 8.384 35.328 0 64-28.672 64-64 0-22.272-11.36-41.856-28.64-53.312 1.12-0.832 1.92-1.856 3.072-2.688-44-54.784-70.432-124.256-70.432-200 0-176.736 143.264-320 320-320s320 143.264 320 320c0 75.744-26.432 145.216-70.432 200 1.152 0.832 1.984 1.856 3.072 2.688-17.28 11.456-28.64 31.040-28.64 53.312 0 35.328 28.672 64 64 64 11.328 0 21.824-3.2 31.072-8.384 0.064 0.736 0.384 1.44 0.448 2.176 1.44-1.472 2.72-3.168 4.192-4.672 8.544-5.728 15.36-13.632 20.32-22.72 64.704-77.664 103.968-177.344 103.968-286.4zM544 362.667h-64c-17.696 0-32 14.304-32 32v448c0 17.664 14.304 32 32 32h64c17.696 0 32-14.336 32-32v-448c0-17.696-14.304-32-32-32z" />
<glyph unicode="&#xe173;" d="M764.256 743.915l-90.24-90.624c60.48-60.512 93.984-140.992 93.984-226.624 0-176.512-143.488-320-320-320v64l-128-128 128-128v64c247.008 0 448 200.992 448 448 0 119.872-46.752 232.512-131.744 317.248zM576 810.667l-128 128v-64c-247.008 0-448-200.992-448-448 0-119.872 46.752-232.512 131.744-317.248l90.24 90.624c-60.48 60.512-93.984 140.992-93.984 226.624 0 176.512 143.488 320 320 320v-64l128 128z" horiz-adv-x="896" />
<glyph unicode="&#xe1bf;" d="M282.419 210.398c-115.814 124.57-113.766 319.744 6.502 440.883 49.254 49.562 110.797 79.155 174.797 88.883l-3.532 106.343c-89.805-10.906-176.743-50.995-245.607-120.32-161.229-162.406-163.123-424.448-6.297-590.438l-89.139-89.754 282.112-15.411-0.768 298.701-118.068-118.887zM622.694 822.699l0.768-298.701 118.118 118.938c115.814-124.57 113.818-319.744-6.502-440.883-49.254-49.613-110.797-79.155-174.848-88.883l3.533-106.291c89.856 10.906 176.794 50.995 245.658 120.371 161.178 162.355 163.174 424.448 6.246 590.387l89.139 89.754-282.112 15.308z" />
<glyph unicode="&#xe600;" d="M469.333 213.334h85.333v256h-85.333v-256zM512 853.334c-235.733 0-426.667-190.933-426.667-426.667s190.933-426.667 426.667-426.667 426.667 190.933 426.667 426.667-190.933 426.667-426.667 426.667zM512 85.334c-188.16 0-341.333 153.173-341.333 341.333s153.173 341.333 341.333 341.333 341.333-153.173 341.333-341.333-153.173-341.333-341.333-341.333zM469.333 554.667h85.333v85.333h-85.333v-85.333z" />
<glyph unicode="&#xe601;" d="M512-46.545c-282.764 0-512 229.236-512 512s229.236 512 512 512 512-229.236 512-512-229.236-512-512-512zM512 884.364c-231.377 0-418.909-187.532-418.909-418.909s187.532-418.909 418.909-418.909 418.909 187.532 418.909 418.909-187.532 418.909-418.909 418.909zM558.545 378.974c0-25.507 0-53.155 0-53.155h-93.091c0 0 0 67.351 0 93.091s20.852 46.545 46.545 46.545v0c51.386 0 93.091 41.705 93.091 93.091s-41.705 93.091-93.091 93.091-93.091-41.705-93.091-93.091c0-17.036 4.887-32.815 12.893-46.545h-99.375c-3.91 14.941-6.609 30.394-6.609 46.545 0 102.819 83.363 186.182 186.182 186.182s186.182-83.363 186.182-186.182c0-86.621-59.439-158.813-139.636-179.572zM558.545 186.182h-93.091v93.091h93.091v-93.091z" />
<glyph unicode="&#xe602;" d="M589.568 807.254c-191.403 0-349.653-133.035-373.675-320.555l-162.048 31.36 159.488-235.904 235.904 159.36-148.352 28.715c20.096 120.363 144.597 251.648 291.84 251.648 160.853 0 292.096-137.856 292.096-298.752s-160.427-291.755-288.427-291.755v-85.333c213.333 0 373.76 172.672 373.76 380.587s-172.672 380.629-380.587 380.629z" />
<glyph unicode="&#xe603;" d="M589.568 807.254c-191.403 0-349.653-133.035-373.675-320.555l-162.048 31.36 159.488-235.904 235.904 159.36-148.352 28.715c20.096 120.363 144.597 251.648 291.84 251.648 160.853 0 292.096-137.856 292.096-298.752s-160.427-291.755-288.427-291.755v-85.333c213.333 0 373.76 172.672 373.76 380.587s-172.672 380.629-380.587 380.629z" />
<glyph unicode="&#xe604;" d="M128 725.334h768q17.667 0 30.167-12.5t12.5-30.167-12.5-30.167-30.167-12.5h-768q-17.667 0-30.167 12.5t-12.5 30.167 12.5 30.167 30.167 12.5zM128 213.334h768q17.667 0 30.167-12.5t12.5-30.167-12.5-30.167-30.167-12.5h-768q-17.667 0-30.167 12.5t-12.5 30.167 12.5 30.167 30.167 12.5zM128 469.334h768q17.667 0 30.167-12.5t12.5-30.167-12.5-30.167-30.167-12.5h-768q-17.667 0-30.167 12.5t-12.5 30.167 12.5 30.167 30.167 12.5z" />
<glyph unicode="&#xe605;" d="M512 768v128l-170.667-170.667 170.667-170.667v128c141.44 0 256-114.56 256-256 0-43.307-10.88-83.84-29.653-119.68l62.293-62.293c33.067 52.907 52.693 114.987 52.693 181.973 0 188.587-152.747 341.333-341.333 341.333zM512 170.667c-141.44 0-256 114.56-256 256 0 43.307 10.88 83.84 29.653 119.68l-62.293 62.293c-33.067-52.907-52.693-114.987-52.693-181.973 0-188.587 152.747-341.333 341.333-341.333v-128l170.667 170.667-170.667 170.667v-128z" />
</font>
</defs>
</svg>
